osu file format v14

[General]
AudioFilename: Endless Story.mp3
AudioLeadIn: 1500
PreviewTime: 56949
Countdown: 0
SampleSet: None
StackLeniency: 0.7
Mode: 3
LetterboxInBreaks: 0
WidescreenStoryboard: 1

[Editor]
DistanceSpacing: 0.8
BeatDivisor: 4
GridSize: 32
TimelineZoom: 2

[Metadata]
Title:Anime OP/ED Fantasy
TitleUnicode:Anime OP/ED Fantasy
Artist:Various Artist
ArtistUnicode:Various Artist
Creator:bima fajar
Version:Endless Story [4k EZ]
Source:
Tags:log horizon log horizon 2 bleach 11eyes black bullet C3 shikyubu romeo x juliet naruto attack on titan chaos dragon sekiryuu sen'eki accel world mahouka koukou no rettousei
BeatmapID:828878
BeatmapSetID:378584

[Difficulty]
HPDrainRate:4
CircleSize:4
OverallDifficulty:6
ApproachRate:5
SliderMultiplier:1.4
SliderTickRate:1

[Events]
//Background and Video events
0,0,"c3fear.jpg",0,0
//Break Periods
//Storyboard Layer 0 (Background)
//Storyboard Layer 1 (Fail)
//Storyboard Layer 2 (Pass)
//Storyboard Layer 3 (Foreground)
//Storyboard Sound Samples

[TimingPoints]
0,759.493670886076,4,2,0,100,1,0
13549,320.855614973262,4,2,0,100,1,0

[HitObjects]
64,192,379,1,0,0:0:0:0:
320,192,569,1,0,0:0:0:0:
192,192,949,128,0,1518:0:0:0:0:
448,192,1898,128,0,2278:0:0:0:0:
64,192,2468,128,0,3037:0:0:0:0:
320,192,3417,1,0,0:0:0:0:
192,192,3797,1,0,0:0:0:0:
448,192,3987,128,0,4367:0:0:0:0:
64,192,4367,128,0,4746:0:0:0:0:
320,192,4746,128,0,5126:0:0:0:0:
192,192,5126,128,0,5506:0:0:0:0:
448,192,5506,128,0,6075:0:0:0:0:
64,192,6265,1,0,0:0:0:0:
320,192,6645,1,0,0:0:0:0:
192,192,7025,128,0,7405:0:0:0:0:
448,192,7784,128,0,8164:0:0:0:0:
64,192,8544,128,0,9113:0:0:0:0:
320,192,9303,1,0,0:0:0:0:
192,192,9683,1,0,0:0:0:0:
448,192,10063,1,0,0:0:0:0:
320,192,10443,1,0,0:0:0:0:
192,192,10822,1,0,0:0:0:0:
320,192,11202,1,0,0:0:0:0:
64,192,11582,128,0,13481:0:0:0:0:
320,192,13629,1,0,0:0:0:0:
320,192,13950,1,0,0:0:0:0:
192,192,14270,128,0,14671:0:0:0:0:
448,192,14912,128,0,15233:0:0:0:0:
64,192,15554,128,0,15955:0:0:0:0:
320,192,16196,1,0,0:0:0:0:
192,192,16436,1,0,0:0:0:0:
448,192,16837,1,0,0:0:0:0:
64,192,17399,128,0,17720:0:0:0:0:
320,192,18040,128,0,18442:0:0:0:0:
192,192,18682,1,0,0:0:0:0:
448,192,19003,1,0,0:0:0:0:
320,192,19324,128,0,19645:0:0:0:0:
192,192,19966,128,0,20286:0:0:0:0:
448,192,20607,128,0,20928:0:0:0:0:
64,192,21249,1,0,0:0:0:0:
320,192,21570,1,0,0:0:0:0:
192,192,21811,1,0,0:0:0:0:
448,192,22131,1,0,0:0:0:0:
320,192,22452,1,0,0:0:0:0:
192,192,22773,1,0,0:0:0:0:
64,192,22934,1,0,0:0:0:0:
320,192,23254,1,0,0:0:0:0:
192,192,23415,1,0,0:0:0:0:
448,192,23655,1,0,0:0:0:0:
320,192,23816,1,0,0:0:0:0:
192,192,24057,1,0,0:0:0:0:
64,192,24217,1,0,0:0:0:0:
320,192,24377,1,0,0:0:0:0:
192,192,24859,1,0,0:0:0:0:
320,192,25420,1,0,0:0:0:0:
448,192,25982,1,0,0:0:0:0:
320,192,26543,1,0,0:0:0:0:
192,192,27265,1,0,0:0:0:0:
64,192,27907,1,0,0:0:0:0:
320,192,28549,1,0,0:0:0:0:
192,192,29190,1,0,0:0:0:0:
448,192,29511,128,0,29992:0:0:0:0:
320,192,30153,128,0,30554:0:0:0:0:
192,192,30875,128,0,31196:0:0:0:0:
448,192,31516,128,0,31917:0:0:0:0:
64,192,32238,128,0,32559:0:0:0:0:
320,192,32800,128,0,33201:0:0:0:0:
192,192,33442,1,0,0:0:0:0:
448,192,33762,1,0,0:0:0:0:
320,192,34083,1,0,0:0:0:0:
192,192,34404,1,0,0:0:0:0:
320,192,34725,1,0,0:0:0:0:
64,192,35286,128,0,35688:0:0:0:0:
448,192,35928,128,0,36329:0:0:0:0:
192,192,36650,128,0,36971:0:0:0:0:
320,192,37292,128,0,37693:0:0:0:0:
64,192,37934,128,0,38335:0:0:0:0:
448,192,38575,128,0,38976:0:0:0:0:
192,192,39137,128,0,39538:0:0:0:0:
320,192,39859,128,0,40260:0:0:0:0:
64,192,40500,128,0,40901:0:0:0:0:
448,192,41142,128,0,41543:0:0:0:0:
192,192,41784,128,0,42185:0:0:0:0:
320,192,42426,1,0,0:0:0:0:
64,192,42746,1,0,0:0:0:0:
448,192,43067,1,0,0:0:0:0:
320,192,43388,1,0,0:0:0:0:
192,192,43709,1,0,0:0:0:0:
64,192,44030,1,0,0:0:0:0:
192,192,44351,1,0,0:0:0:0:
320,192,44351,1,0,0:0:0:0:
192,192,44511,1,0,0:0:0:0:
320,192,44511,1,0,0:0:0:0:
192,192,44671,1,0,0:0:0:0:
320,192,44671,1,0,0:0:0:0:
448,192,44992,1,0,0:0:0:0:
320,192,45313,1,0,0:0:0:0:
192,192,45634,1,0,0:0:0:0:
64,192,45955,1,0,0:0:0:0:
320,192,46276,1,0,0:0:0:0:
192,192,46597,1,0,0:0:0:0:
448,192,46917,1,0,0:0:0:0:
320,192,47238,1,0,0:0:0:0:
192,192,47559,1,0,0:0:0:0:
64,192,47880,1,0,0:0:0:0:
192,192,48201,1,0,0:0:0:0:
320,192,48281,1,0,0:0:0:0:
320,192,48602,1,0,0:0:0:0:
448,192,48923,1,0,0:0:0:0:
320,192,49163,1,0,0:0:0:0:
448,192,49484,1,0,0:0:0:0:
192,192,49484,1,0,0:0:0:0:
320,192,49885,1,0,0:0:0:0:
64,192,50206,1,0,0:0:0:0:
320,192,50206,1,0,0:0:0:0:
320,192,50527,1,0,0:0:0:0:
192,192,50848,1,0,0:0:0:0:
320,192,50848,1,0,0:0:0:0:
320,192,51169,1,0,0:0:0:0:
448,192,51490,1,0,0:0:0:0:
192,192,51490,1,0,0:0:0:0:
320,192,51811,1,0,0:0:0:0:
448,192,52051,1,0,0:0:0:0:
192,192,52131,1,0,0:0:0:0:
320,192,52452,1,0,0:0:0:0:
64,192,52773,1,0,0:0:0:0:
192,192,53094,1,0,0:0:0:0:
320,192,53415,1,0,0:0:0:0:
448,192,53736,1,0,0:0:0:0:
320,192,54057,1,0,0:0:0:0:
192,192,54297,1,0,0:0:0:0:
64,192,54618,1,0,0:0:0:0:
192,192,54939,1,0,0:0:0:0:
320,192,55260,1,0,0:0:0:0:
192,192,55581,1,0,0:0:0:0:
448,192,55901,1,0,0:0:0:0:
320,192,56222,1,0,0:0:0:0:
192,192,56543,1,0,0:0:0:0:
64,192,57265,1,0,0:0:0:0:
192,192,57586,1,0,0:0:0:0:
320,192,57827,1,0,0:0:0:0:
448,192,58468,1,0,0:0:0:0:
320,192,58789,1,0,0:0:0:0:
192,192,59110,1,0,0:0:0:0:
448,192,59752,1,0,0:0:0:0:
320,192,60073,1,0,0:0:0:0:
192,192,60393,1,0,0:0:0:0:
64,192,60714,1,0,0:0:0:0:
192,192,61035,1,0,0:0:0:0:
320,192,61356,1,0,0:0:0:0:
448,192,61677,1,0,0:0:0:0:
192,192,62319,1,0,0:0:0:0:
320,192,62639,1,0,0:0:0:0:
448,192,62960,1,0,0:0:0:0:
448,192,63682,1,0,0:0:0:0:
320,192,64003,1,0,0:0:0:0:
192,192,64244,1,0,0:0:0:0:
64,192,64565,1,0,0:0:0:0:
192,192,64885,1,0,0:0:0:0:
320,192,65206,1,0,0:0:0:0:
192,192,65527,1,0,0:0:0:0:
448,192,65848,1,0,0:0:0:0:
320,192,66169,1,0,0:0:0:0:
192,192,66409,1,0,0:0:0:0:
64,192,66730,1,0,0:0:0:0:
320,192,67051,1,0,0:0:0:0:
192,192,67372,1,0,0:0:0:0:
448,192,67693,1,0,0:0:0:0:
320,192,68014,1,0,0:0:0:0:
64,192,68736,1,0,0:0:0:0:
192,192,69057,1,0,0:0:0:0:
320,192,69377,1,0,0:0:0:0:
448,192,70099,1,0,0:0:0:0:
320,192,70340,1,0,0:0:0:0:
192,192,70661,1,0,0:0:0:0:
64,192,70982,1,0,0:0:0:0:
192,192,71303,1,0,0:0:0:0:
320,192,71623,1,0,0:0:0:0:
448,192,71944,1,0,0:0:0:0:
448,192,72586,1,0,0:0:0:0:
320,192,72907,1,0,0:0:0:0:
192,192,73308,1,0,0:0:0:0:
64,192,73950,1,0,0:0:0:0:
192,192,74270,1,0,0:0:0:0:
320,192,74591,1,0,0:0:0:0:
448,192,74912,1,0,0:0:0:0:
320,192,75233,1,0,0:0:0:0:
192,192,75554,1,0,0:0:0:0:
64,192,75875,1,0,0:0:0:0:
64,192,76196,1,0,0:0:0:0:
64,192,76516,1,0,0:0:0:0:
64,192,76837,1,0,0:0:0:0:
64,192,77078,1,0,0:0:0:0:
64,192,77479,1,0,0:0:0:0:
448,192,77800,1,0,0:0:0:0:
320,192,78121,1,0,0:0:0:0:
192,192,78442,128,0,78762:0:0:0:0:
448,192,79003,128,0,79404:0:0:0:0:
64,192,79725,128,0,80046:0:0:0:0:
448,192,80367,1,0,0:0:0:0:
320,192,80607,1,0,0:0:0:0:
192,192,81008,1,0,0:0:0:0:
64,192,81249,1,0,0:0:0:0:
192,192,81650,1,0,0:0:0:0:
320,192,81891,1,0,0:0:0:0:
320,192,82212,128,0,82613:0:0:0:0:
448,192,82853,1,0,0:0:0:0:
320,192,83174,1,0,0:0:0:0:
192,192,83495,128,0,83896:0:0:0:0:
448,192,84137,128,0,84458:0:0:0:0:
320,192,84698,128,0,85099:0:0:0:0:
192,192,85340,1,0,0:0:0:0:
64,192,85661,1,0,0:0:0:0:
320,192,85982,128,0,87024:0:0:0:0:
192,192,87185,128,0,89190:0:0:0:0:
